#TITLE:Death Reveals;
#SUBTITLE:;
#ARTIST:The Berzerker;
#TITLETRANSLIT:;
#SUBTITLETRANSLIT:;
#ARTISTTRANSLIT:;
#CREDIT:;
#BANNER:dr-bn.png;
#BACKGROUND:dr-bg.png;
#LYRICSPATH:;
#CDTITLE:!mm989cdtitle.png;
#MUSIC:the berzerker- dissimulate-05-death reveals .mp3;
#OFFSET:-2.947;
#SAMPLESTART:2.940;
#SAMPLELENGTH:12.000;
#SELECTABLE:YES;
#BPMS:0.000=296.001;
#STOPS:;
#BGCHANGES:;
// cache tags:
#FIRSTBEAT:0.000;
#LASTBEAT:555.000;
#SONGFILENAME:Songs/Music V.I.P ^_^/Death Reveals[dans]/dr.sm;
#HASMUSIC:1;
#HASBANNER:1;
#MUSICLENGTH:116.354;
// end cache tags

//---------------dance-single - wtf on pad?----------------
#NOTES:
     dance-single:
     wtf on pad?:
     Hard:
     12:
     1.000,1.000,0.653,0.430,0.000,860.000,76.000,50.000,0.000,0.000:
1000
0010
1000
0001
0010
0001
1000
0100
,
0010
0100
1000
0001
0010
0001
1000
0100
,
1000
0001
1000
0001
0100
0001
1000
0010
,
0100
0001
0100
0001
1000
0010
1000
0001
,
1000
0001
0010
0100
0010
0001
1000
0010
,
0100
0001
1000
0010
0100
0010
1000
0100
,
1000
0001
1000
0001
0100
0010
1000
0010
,
0100
0001
0010
0100
1000
0001
1000
0001
,
0100
0001
0100
0010
1000
0010
0100
0001
,
0010
0100
1000
0100
0010
0100
1000
0001
,
0010
0100
1000
0100
0010
0001
0010
0100
,
0010
0001
0010
0100
1000
0010
0100
0001
,
0100
0010
1000
0010
0100
0001
1000
0001
,
0100
0001
1000
0010
1000
0001
0100
0010
,
0100
0001
0010
0100
0010
0001
1000
0001
,
2200
3300
0022
0033
,
1000
0010
1000
0001
1000
0100
0010
0100
,
1000
0001
0010
0100
1000
0100
0010
0100
,
1000
0001
0100
0001
1000
0010
1000
0001
,
0100
0001
1000
0001
1010
0000
0101
0000
,
1000
0001
0100
0001
1000
0010
0100
0001
,
1010
0101
1010
1001
,
0010
1000
0001
0100
0001
0010
0100
1000
,
0101
1010
1001
0011
,
1000
0001
0100
0001
1000
0010
0100
0010
,
1000
0100
1000
0001
0010
0001
0100
0001
,
1000
0100
1000
0010
0100
0001
0010
0100
,
1000
0001
0010
0001
1000
0010
1000
0001
,
0100
0001
1000
0010
1000
0001
0100
0001
,
0010
0100
0010
0001
1000
0001
0100
0001
,
1000
0001
0100
0010
0100
0001
0010
0100
,
0022
0033
2020
3030
,
1000
0001
1000
0010
0100
0001
0010
0100
,
1000
0100
1000
0001
0010
0001
0010
0001
,
1000
0010
1000
0010
0100
0001
0010
0100
,
0010
0001
1000
0001
0100
0001
0100
0001
,
0010
0001
1000
0001
1000
0001
0100
0001
,
1000
0001
0100
0010
1000
0010
0100
0001
,
0010
0100
1000
0001
0100
0001
1000
0010
,
2002
3003
2020
3030
,
1000
0001
0100
0001
,
1000
0000
0010
1000
1001
0000
0000
0000
,
1000
0001
0100
0010
,
1000
0001
1100
0011
,
1000
0001
0100
0010
,
1010
0101
1010
1001
,
1000
0001
0010
0100
,
1000
0101
1100
1001
,
1000
0001
0100
0010
1000
0010
0100
0001
,
0100
0010
1000
0010
0100
0001
0100
0001
,
0100
0010
0100
0001
0100
0010
1000
0010
,
0100
0001
1000
0010
0100
0001
1000
0010
,
1000
0001
0100
0001
1000
0010
0100
0001
,
0100
0001
0100
0010
0100
0010
1000
0010
,
0100
0001
0100
0010
0100
0001
1000
0010
,
2002
3003
2020
3030
,
1000
0000
0001
1000
0001
0000
1000
0000
,
0010
0000
0100
0001
1000
0000
0001
0000
,
0100
0001
1000
0001
,
0100
0000
0001
0000
1000
0001
1000
0000
,
0001
0000
1000
0010
1000
0000
0001
0000
,
0100
0000
0001
1000
0010
0000
1000
0001
,
1000
0001
1000
0000
0001
0000
0100
0000
,
2002
3003
2020
3030
,
1000
0001
0100
0001
,
1000
0000
0001
1000
0001
1000
0001
0000
,
1010
0001
0100
0001
,
1000
0000
0001
1000
1010
0000
0101
0000
,
1000
0001
0100
0001
,
1010
0101
0011
1001
,
1000
0010
0100
0001
1000
0001
1000
0000
,
1010
0000
0101
0000
2002
3003
0010
1000
,
0010
0100
0001
0100
0001
0100
0010
0100
,
0001
0100
0010
1000
0010
0100
0001
0100
,
0001
1000
0010
1000
0001
0100
0001
0100
,
0010
0100
0001
1000
0010
1000
0010
0100
,
0010
1000
0001
0100
0001
1000
0001
0100
,
0001
1000
0010
0100
0010
1000
0010
0100
,
0001
0100
0010
0100
0001
1000
0010
0100
,
2020
3030
0202
0303
,
0001
0010
0001
1000
0100
1000
0010
0100
,
0010
1000
0001
0100
0010
1000
0010
0100
,
0001
0100
0001
1000
0001
0100
0010
1000
,
0010
0100
0001
0010
0100
1000
0010
0100
,
0001
1000
0010
1000
0001
0100
0001
1000
,
0001
1000
0010
0100
0010
0100
0001
0100
,
0010
1000
0010
0100
0001
1000
0001
0100
,
2002
3003
2020
3030
,
0202
0303
2020
3030
,
0000
0101
1010
1001
,
0001
1000
0010
1000
0001
0100
0001
0010
,
0001
1000
0010
1000
0001
0100
0001
1000
,
0010
0100
0001
0100
0001
1000
0010
1000
,
0010
0100
0010
1000
0010
0100
0001
1000
,
0001
0100
0001
1000
0010
1000
0001
0100
,
0001
1000
0010
0100
0001
0010
0100
1000
,
0100
0010
0100
1000
0001
1000
0010
1000
,
0001
0010
0001
1000
0010
1000
0001
0100
,
0001
1000
0001
1000
0001
1000
0001
1000
,
0001
1000
0001
0000
2002
3003
0000
0010
,
1000
0010
1000
0000
0001
0000
1000
0000
,
0001
1010
0001
1010
,
0001
0100
0001
0100
0001
0100
0001
0100
,
0001
0100
0001
0100
0001
0000
0000
0000
,
0010
1000
0010
1000
0010
0000
1000
0000
,
0001
1000
0010
0101
,
1000
0001
1000
0001
1000
0001
1000
0001
,
1000
0001
1000
0001
0000
0000
0000
1010
,
0000
0010
1000
0010
0100
0001
0100
0010
,
1000
0010
0100
0001
0000
1001
0000
0000
,
0000
0100
0001
1000
0010
1000
0001
0100
,
0001
1000
0010
0100
0001
0000
0000
0000
,
1000
0010
1000
0001
1000
0100
1000
0001
,
1000
2002
0003
0000
0000
0000
0000
0000
,
0000
0000
0000
0000
0020
0030
3000
0000
,
0001
1000
0010
1000
,
0001
0000
1000
0001
2000
0000
3000
0000
,
1010
0100
0001
1000
,
0001
1000
0011
1100
,
0001
0100
0001
1000
,
0101
1010
0101
1001
,
0001
1000
0001
0000
1000
0000
0010
0000
,
1001
0101
2020
3030
,
1000
0010
1000
0010
0100
0001
0100
0001
,
1000
0010
0100
0001
1000
0010
0100
0001
,
1000
0010
0100
0001
1000
0001
0100
0001
,
1000
0010
1000
0001
0100
0001
1000
0010
,
0100
0001
1000
0010
0100
0001
1000
0010
,
0100
0010
1000
0001
0100
0001
1000
0001
,
1000
0011
1000
1001
,
2200
3300
0202
0303
,
0010
1000
0010
0000
1010
0000
0101
0000
,
1000
0000
0001
1000
0001
0000
1000
0001
,
1000
0101
1010
0001
,
1000
0001
1000
0001
1000
0001
1000
0000
,
0001
1000
0010
1000
,
0001
1000
0010
1000
,
0001
1000
0001
0000
1000
0010
1000
0000
,
2002
3003
2020
3030
;
